<?xml version="1.0" standalone="no"?>
<!DOCTYPE svg PUBLIC "-//W3C//DTD SVG 1.1//EN" "http://www.w3.org/Graphics/SVG/1.1/DTD/svg11.dtd" >
<svg>
<metadata>
Created by FontForge 20090622 at Tue Mar 15 08:54:07 2016
 By deploy user
Generated by Metamorphosis Professional 2.01
</metadata>
<defs>
<font id="Slant" horiz-adv-x="600" >
  <font-face 
    font-family="Slant"
    font-weight="5"
    font-stretch="normal"
    units-per-em="1000"
    panose-1="0 0 0 0 0 0 0 0 0 0"
    ascent="800"
    descent="-200"
    x-height="524"
    cap-height="655"
    bbox="-90 -233 1000 811"
    underline-thickness="20"
    underline-position="-123"
    unicode-range="U+0020-U+F000"
  />
<missing-glyph horiz-adv-x="811" 
d="M50 0v811h711v-811h-711zM711 50v711h-611v-711h611z" />
    <glyph glyph-name=".notdef" horiz-adv-x="811" 
d="M50 0v811h711v-811h-711zM711 50v711h-611v-711h611z" />
    <glyph glyph-name="glyph1" horiz-adv-x="0" 
 />
    <glyph glyph-name="glyph2" horiz-adv-x="281" 
 />
    <glyph glyph-name="space" unicode=" " horiz-adv-x="281" 
 />
    <glyph glyph-name="exclam" unicode="!" horiz-adv-x="306" 
d="M96 165h138v-165h-138v165zM91 520l138 135v-410h-138v275z" />
    <glyph glyph-name="quotedbl" unicode="&#x22;" horiz-adv-x="260" 
d="M160 652h65l-10 -171h-45zM35 652h65l-10 -171h-45z" />
    <glyph glyph-name="numbersign" unicode="#" horiz-adv-x="530" 
d="M253 631l-30 -123h135l30 123h24l-30 -123h128l-8 -24h-124l-28 -112h132l-8 -24h-132l-30 -128h-24l30 128h-134l-31 -124h-24l26 124h-123l8 24h128l22 112h-135l8 24h136l30 123h24zM219 484l-27 -112h134l28 112h-135z" />
    <glyph glyph-name="dollar" unicode="$" horiz-adv-x="432" 
d="M170 494q59 0 97.5 -36.5t38.5 -91.5t-36.5 -93.5t-91.5 -38.5h-101h-64v105l153 -1q11 0 17.5 7.5t7.5 20.5q0 23 -30 23q-63 0 -103 40t-40 99q0 52 40 89t95 37h259l-110 -110l-153 1q-25 0 -25 -21q0 -17 13.5 -23.5t32.5 -6.5zM202 693v-512h-32v512h32z" />
    <glyph glyph-name="percent" unicode="%" horiz-adv-x="825" 
d="M623 332q77 0 121.5 -49t44.5 -115t-43.5 -115.5t-122.5 -49.5q-78 0 -124 48t-46 116q0 65 45.5 115t124.5 50zM787 653l-667 -653h-57l657 653h67zM268 647q77 0 121.5 -49t44.5 -115t-43.5 -115.5t-122.5 -49.5q-78 0 -124 48t-46 116q0 65 45.5 115t124.5 50zM623 56
q50 0 80 33t30 78t-29 77q-27 33 -81 33q-51 0 -83 -33q-29 -34 -29 -78q0 -46 28.5 -78t83.5 -32zM268 371q50 0 80 33t30 78t-29 77q-27 33 -81 33q-51 0 -83 -33q-29 -34 -29 -78q0 -46 28.5 -78t83.5 -32z" />
    <glyph glyph-name="quotesingle" unicode="'" horiz-adv-x="130" 
d="M35 652h65l-10 -171h-45z" />
    <glyph glyph-name="parenleft" unicode="(" horiz-adv-x="255" 
d="M182 709q-26 -98 -39 -178.5t-13 -176.5q0 -140 9.5 -224.5t42.5 -205.5h-99q-31 113 -39 180t-11 127t-3 123q0 95 9 152t19 103.5t25 99.5h99z" />
    <glyph glyph-name="parenright" unicode=")" horiz-adv-x="255" 
d="M147 709q26 -98 39.5 -177t13.5 -178q0 -137 -10 -224t-43 -206h-99q14 53 24.5 104.5t16 98t8.5 104.5t3 123q0 107 -8.5 159.5t-17.5 94.5t-26 101h99z" />
    <glyph glyph-name="asterisk" unicode="*" horiz-adv-x="225" 
d="M103 569l-8 28l-3 28q0 23 15 25q14 0 14 -23q0 -6 -1.5 -15t-3 -16.5t-2.5 -16.5q-4 -7 -5 -10l33 31q17 14 30 16q6 -2 8 -4q8 -14 -16 -27l-51 -22q28 -8 49 -17.5t21 -20.5q0 -3 -3 -8.5t-10 -5.5q-13 0 -30 14l-31 31l8 -30q2 -7 3 -13.5t2 -15.5q0 -21 -14 -21
q-9 0 -13 7l-4 18q0 17 4 32l8 23l-31 -29q-16 -14 -30 -14q-6 0 -12 6q-8 12 9.5 21t59.5 22q-27 9 -52 21.5t-17 27.5q5 6 10 6q14 0 31 -16z" />
    <glyph glyph-name="plus" unicode="+" horiz-adv-x="371" 
d="M70 330h235v-85h-235v85zM143 170v235h85v-235h-85z" />
    <glyph glyph-name="comma" unicode="," horiz-adv-x="306" 
d="M96 165h138l-4 -165h4h-138v165zM115 -110h-85l130 135l70 -25z" />
    <glyph glyph-name="hyphen" unicode="-" horiz-adv-x="371" 
d="M70 330h235v-85h-235v85z" />
    <glyph glyph-name="period" unicode="." horiz-adv-x="306" 
d="M96 165h138v-165h-138v165z" />
    <glyph glyph-name="slash" unicode="/" horiz-adv-x="560" 
d="M105 -42l-51 30l400 693l51 -30z" />
    <glyph glyph-name="zero" unicode="0" horiz-adv-x="702" 
d="M675 330q0 -159 -100 -248t-238 -89q-137 0 -237 88.5t-100 248.5q0 158 100 247.5t238 89.5t212.5 -66.5t99.5 -127.5t25 -143zM170 330q0 -77 49 -121t117 -44q66 0 115 43t49 122q0 78 -49 121.5t-117 43.5q-66 0 -115 -42.5t-49 -122.5z" />
    <glyph glyph-name="one" unicode="1" 
d="M388 0h-180v475h-105l175 180h110v-655z" />
    <glyph glyph-name="two" unicode="2" 
d="M-6 0l188.5 180.5t132.5 138t59 105.5q0 12 -9.5 30t-32 23.5t-47.5 7.5t-63 2l-74 -1h-83l74 75l91 92h150q72 0 127 -39t67 -87.5t12 -72.5q0 -62 -42 -125.5t-146 -165.5h20h26h17h15h13h12h27q17 0 21 2l-1 -165h-554z" />
    <glyph glyph-name="three" unicode="3" 
d="M128 485l168 170h350l-209 -211q59 -31 91.5 -87t32.5 -123q0 -105 -65 -170t-167 -65l-215 1l-2 164l219 -1q25 0 44 20t19 47q0 26 -20.5 46.5t-48.5 20.5h-68l-55 -1l191 189h-265z" />
    <glyph glyph-name="four" unicode="4" 
d="M542 403v-403h-168v403h168zM411 165h-402l489 492h171l-357 -357h99v-135z" />
    <glyph glyph-name="five" unicode="5" 
d="M513 485h-187l-40 -40l136 -1q65 -29 102 -87t37 -123q0 -105 -65 -170t-167 -65l-315 1l138 159l60 2l119 2q25 0 44 20t19 47q0 26 -20.5 46.5t-48.5 20.5h-130l-128 -1l326 359h282z" />
    <glyph glyph-name="six" unicode="6" 
d="M393 480q78 -20 126 -84t48 -150q0 -108 -73 -179.5t-191 -71.5q-110 0 -172 74t-62 180q0 52 26.5 107t67.5 94l70 67l79 82l56 56h196q-63 -61 -94 -95zM308 335q-41 0 -64 -26t-23 -61q0 -40 25.5 -69t71.5 -29q41 0 64 26t23 61q0 40 -25 69t-72 29z" />
    <glyph glyph-name="seven" unicode="7" 
d="M195 655h457l-407 -410v-245h-153l1 239l237 242h-305z" />
    <glyph glyph-name="eight" unicode="8" 
d="M70 245q0 81 40 138.5t65.5 74.5t51.5 17q14 0 25.5 -14.5t28 -42.5t37.5 -33q24 -3 63.5 33.5t58.5 36.5q33 0 79 -64t46 -146q0 -103 -78.5 -176.5t-183.5 -73.5q-98 0 -165.5 75t-67.5 175zM210 370q-32 18 -47 53q-13 36 -13 82q0 70 56.5 115t130.5 45
q67 0 115 -50.5t48 -119.5q0 -46 -12.5 -78.5t-33.5 -44.5t-39 -15l-17 -2l-45 4l-37 5l-39 -3l-24 -2q-15 0 -22 2zM308 335q-41 0 -64 -26t-23 -61q0 -40 25.5 -69t71.5 -29q41 0 64 26t23 61q0 40 -25 69t-72 29zM320 557q-28 0 -44.5 -18.5t-16.5 -42.5q0 -27 18 -48
t50 -21q28 0 44.5 18.5t16.5 42.5q0 27 -18 48t-50 21z" />
    <glyph glyph-name="nine" unicode="9" 
d="M251 175q-77 19 -125.5 84t-48.5 150q0 107 72 179t192 72q111 0 172.5 -73.5t61.5 -180.5q0 -50 -26.5 -106t-68.5 -95l-69 -68l-79 -81l-56 -56h-196l94 94zM336 320q41 0 64 26t23 61q0 40 -25 69t-72 29q-41 0 -64 -26t-23 -61q0 -40 25.5 -69t71.5 -29z" />
    <glyph glyph-name="colon" unicode=":" horiz-adv-x="306" 
d="M96 165h138v-165h-138v165zM91 400h138v-165h-138v165z" />
    <glyph glyph-name="semicolon" unicode=";" horiz-adv-x="306" 
d="M96 165h138v-165h-138v165zM91 400h138v-165h-138v165zM115 -110h-85l130 135l70 -25z" />
    <glyph glyph-name="less" unicode="&#x3c;" horiz-adv-x="255" 
d="M15 250l185 185h30l-185 -185l185 -180h-30z" />
    <glyph glyph-name="equal" unicode="=" horiz-adv-x="290" 
d="M36 219h222v-50h-222v50zM36 349h222v-50h-222v50z" />
    <glyph glyph-name="greater" unicode="&#x3e;" horiz-adv-x="250" 
d="M200 250l-185 185h30l185 -185l-185 -180h-30z" />
    <glyph glyph-name="question" unicode="?" horiz-adv-x="587" 
d="M169 165h138v-165h-138v165zM216 235l-1 17q0 35 9 47l15 14q3 13 14 24q9 12 40 12q29 0 49 18.5t20 47.5q0 26 -18.5 48.5t-44.5 22.5l-219 -1l171 171h52q99 0 165.5 -69.5t66.5 -175.5q0 -69 -67 -135t-158 -66zM172 351h138v-141h-138v141z" />
    <glyph glyph-name="A" unicode="A" horiz-adv-x="642" 
d="M-7 213l442 442h156v-655h-180v84h-284l161 160h123v174l-418 -418v213z" />
    <glyph glyph-name="B" unicode="B" horiz-adv-x="607" 
d="M-8 475l180 180v-655h-180v475zM346 655q100 0 159 -51.5t59 -154.5q0 -88 -58.5 -146.5t-154.5 -58.5l-133 1v160l129 1q19 0 31 12t12 30q0 16 -11 27t-33 11l-174 -1v170h174zM346 406q100 0 159 -50t59 -151q0 -88 -58.5 -146.5t-154.5 -58.5h-133v164l129 1
q19 0 31.5 12.5t12.5 30.5q0 15 -10 26t-33 11h-130v160z" />
    <glyph glyph-name="C" unicode="C" horiz-adv-x="494" 
d="M390 164v-164l-82 -1q-132 0 -221.5 94t-89.5 227q0 138 105 236t249 98l249 1l-169 -170h-88q-68 0 -120.5 -47.5t-52.5 -116.5q0 -63 42.5 -110t105.5 -47h72z" />
    <glyph glyph-name="D" unicode="D" horiz-adv-x="652" 
d="M212 163v-163h84q132 0 221.5 93.5t89.5 226.5q0 137 -104.5 235.5t-249.5 98.5l-74 1l-1 -171l88 1q69 0 118.5 -48.5t49.5 -115.5q0 -63 -42.5 -110t-105.5 -47zM-2 475l180 180v-655h-180v475z" />
    <glyph glyph-name="E" unicode="E" horiz-adv-x="470" 
d="M0 475l180 180v-169v-486h-180v475zM130 164h285v-164h-235zM120 405h295v-161h-235zM135 485l45 170h403l-170 -170h-278z" />
    <glyph glyph-name="F" unicode="F" horiz-adv-x="463" 
d="M0 475l180 180v-169v-156v-330h-180v475zM180 405h235v-161h-235v161zM180 485v170h403l-170 -170h-233z" />
    <glyph glyph-name="G" unicode="G" horiz-adv-x="593" 
d="M551 485h-208q-68 0 -120.5 -47.5t-52.5 -116.5q0 -63 42.5 -110t105.5 -47h72v-164l-82 -1q-132 0 -221.5 94t-89.5 227q0 138 105 236t249 98l369 1zM390 0v405h162v-405h-162z" />
    <glyph glyph-name="H" unicode="H" horiz-adv-x="656" 
d="M0 475l180 180v-655h-180v475zM415 655h190v-655h-190v655zM150 405h305l10 -160h-325z" />
    <glyph glyph-name="I" unicode="I" horiz-adv-x="224" 
d="M0 475l180 180v-655h-180v475z" />
    <glyph glyph-name="J" unicode="J" horiz-adv-x="239" 
d="M14 0v475l180 180v-655q0 -20 -2 -35q-5 -21 -10.5 -50.5t-32 -58t-60 -41.5t-74.5 -13h-73v158h42q17 0 23 13z" />
    <glyph glyph-name="K" unicode="K" horiz-adv-x="557" 
d="M0 475l180 180v-655h-180v475zM155 370l286 285h229l-293 -294l133 -133v-228l-243 242l-112 -111v239z" />
    <glyph glyph-name="L" unicode="L" horiz-adv-x="463" 
d="M0 475l180 180v-169v-486h-180v475zM180 164h235v-164h-235v164z" />
    <glyph glyph-name="M" unicode="M" horiz-adv-x="790" 
d="M0 207l453 450v-282l285 282v-657h-171v285l-288 -288v279l-279 -276v207z" />
    <glyph glyph-name="N" unicode="N" horiz-adv-x="657" 
d="M0 475l180 180v-655h-180v475zM606 0l-456 453l30 204l234 -237v237h192v-657z" />
    <glyph glyph-name="O" unicode="O" horiz-adv-x="702" 
d="M675 330q0 -159 -100 -248t-238 -89q-137 0 -237 88.5t-100 248.5q0 158 100 247.5t238 89.5t212.5 -66.5t99.5 -127.5t25 -143zM170 330q0 -77 49 -121t117 -44q66 0 115 43t49 122q0 78 -49 121.5t-117 43.5q-66 0 -115 -42.5t-49 -122.5z" />
    <glyph glyph-name="P" unicode="P" horiz-adv-x="607" 
d="M-8 475l180 180v-655h-180v475zM346 655q103 0 174 -63t71 -188q0 -98 -71.5 -168t-168.5 -70l-133 1v160l81 1q40 0 61 21t21 53q0 38 -20 61q-18 23 -63 23l-126 -1v170h174z" />
    <glyph glyph-name="Q" unicode="Q" horiz-adv-x="701" 
d="M426 192q74 48 74 138q0 78 -49 121.5t-117 43.5q-66 0 -115 -42.5t-49 -122.5q0 -70 48.5 -117.5t124.5 -47.5h327l-160 -165l-152 -6q-156 0 -257 96.5t-101 239.5q0 158 100 247.5t238 89.5t212.5 -66.5t99.5 -127.5t25 -143q0 -66 -27 -138l-33 -1h-38h-26h-22h-19
h-17h-14h-12h-28z" />
    <glyph glyph-name="R" unicode="R" horiz-adv-x="595" 
d="M-8 475l180 180v-655h-180v475zM346 655q100 0 159 -51.5t59 -154.5q0 -88 -58.5 -146.5t-154.5 -58.5q-42 0 -42 8l4 4l11 5l-107 82l81 1q40 0 61 21t21 53t-18.5 50t-63.5 18l-126 -1v170h174zM559 -5l-348 348h213l135 -138v-210z" />
    <glyph glyph-name="S" unicode="S" horiz-adv-x="503" 
d="M246 405q93 0 153 -56.5t60 -141.5q0 -83 -59 -145t-142 -62h-156h-102v164l240 -1q17 0 28 12.5t11 29.5q0 37 -47 37q-97 0 -160 62t-63 155q0 83 62.5 139.5t147.5 56.5h405l-171 -171l-240 1q-16 0 -26.5 -6.5t-12.5 -22.5q0 -29 21 -40t51 -11z" />
    <glyph glyph-name="T" unicode="T" horiz-adv-x="470" 
d="M175 487l180 168v-169v-486h-180v487zM10 485l170 170h403l-170 -170h-403z" />
    <glyph glyph-name="U" unicode="U" horiz-adv-x="578" 
d="M528 246q0 -106 -79 -181t-187 -75q-107 0 -184.5 74.5t-77.5 181.5v229l180 180v-411q0 -33 25.5 -56.5t60.5 -23.5q33 0 58.5 23t25.5 57v157v144v111h178v-89v-321z" />
    <glyph glyph-name="V" unicode="V" horiz-adv-x="537" 
d="M2 485l174 173v-279l279 276h206l-659 -657v487z" />
    <glyph glyph-name="W" unicode="W" horiz-adv-x="818" 
d="M944 656l-657 -658v282l-285 -282v483l171 174v-285l288 288v-279l282 279z" />
    <glyph glyph-name="X" unicode="X" horiz-adv-x="537" 
d="M0 -6v234l428 427h235zM6 492l164 163l331 -331v-329z" />
    <glyph glyph-name="Y" unicode="Y" horiz-adv-x="557" 
d="M0 475l180 180v-655h-180v475zM155 131v239l286 285h229z" />
    <glyph glyph-name="Z" unicode="Z" horiz-adv-x="581" 
d="M172 655h487l-492 -492h377v-163h-543v214l267 272h-264z" />
    <glyph glyph-name="bracketleft" unicode="[" horiz-adv-x="285" 
d="M0 755h200v-60h-55v-720h55v-55h-200v835z" />
    <glyph glyph-name="backslash" unicode="\" horiz-adv-x="560" 
d="M90 656l51 30l400 -693l-51 -30z" />
    <glyph glyph-name="bracketright" unicode="]" horiz-adv-x="285" 
d="M285 -80h-200v55h55v720h-55v60h200v-835z" />
    <glyph glyph-name="asciicircum" unicode="^" horiz-adv-x="1000" 
d="M110 595l65 60l65 -65l-30 -30l-35 35l-50 -40z" />
    <glyph glyph-name="underscore" unicode="_" horiz-adv-x="1000" 
d="M1000 0l-1000 -2z" />
    <glyph glyph-name="grave" unicode="`" horiz-adv-x="1000" 
d="M185 790l90 -125l-45 -5l-95 100z" />
    <glyph glyph-name="a" unicode="a" horiz-adv-x="513" 
d="M-5 170l353 354h124v-524h-144v67h-227l129 128h98v139l-333 -334v170z" />
    <glyph glyph-name="b" unicode="b" horiz-adv-x="485" 
d="M-6 380l143 144v-524h-143v380zM276 524q79 0 127 -41.5t48 -123.5q0 -70 -47 -117t-124 -47l-106 1v128h103q15 0 24.5 9.5t9.5 23.5q0 11 -9 21t-26 10h-139v136h139zM276 324q81 0 128 -39.5t47 -120.5q0 -70 -47 -117t-124 -47h-106v131l103 1q15 0 24 10t11 25
q0 29 -34 29h-104v128h102z" />
    <glyph glyph-name="c" unicode="c" horiz-adv-x="395" 
d="M312 131v-131h-66q-105 0 -176.5 75.5t-71.5 180.5q0 111 82.5 189t199.5 78l200 1l-136 -136h-70q-56 0 -97 -38.5t-41 -93.5q0 -50 34.5 -87.5t83.5 -37.5h58z" />
    <glyph glyph-name="d" unicode="d" horiz-adv-x="521" 
d="M228 131q48 0 83.5 37t35.5 88q0 54 -39.5 93t-95.5 39l-70 -1l1 137l59 -1q115 0 199 -77.5t84 -189.5q0 -106 -71 -181t-178 -75h-67v130zM-1 380l143 144v-524h-143v380z" />
    <glyph glyph-name="e" unicode="e" horiz-adv-x="376" 
d="M0 380l144 144v-136v-388h-144v380zM104 131h228v-131h-188zM96 324h236v-129h-188zM108 388l36 136h322l-136 -136h-222z" />
    <glyph glyph-name="f" unicode="f" horiz-adv-x="370" 
d="M0 380l144 144v-136v-124v-264h-144v380zM144 324h188v-129h-188v129zM144 388v136h322l-136 -136h-186z" />
    <glyph glyph-name="g" unicode="g" horiz-adv-x="474" 
d="M440 388h-166q-56 0 -97 -38.5t-41 -93.5q0 -50 34.5 -87.5t83.5 -37.5h58v-131h-66q-105 0 -176.5 75.5t-71.5 180.5q0 111 87.5 189t206.5 78l284 1zM312 0v324h129v-324h-129z" />
    <glyph glyph-name="h" unicode="h" horiz-adv-x="519" 
d="M0 380l144 144v-524h-144v380zM332 524h152v-524h-152v524zM120 324h244l8 -128h-260z" />
    <glyph glyph-name="i" unicode="i" horiz-adv-x="189" 
d="M0 380l144 144v-524h-144v380z" />
    <glyph glyph-name="j" unicode="j" horiz-adv-x="191" 
d="M11 0v380l144 144v-524q0 -33 -9 -63t-27 -50.5t-38 -29.5t-35 -12t-34 -3h-58v126h34q13 0 17 11z" />
    <glyph glyph-name="k" unicode="k" horiz-adv-x="445" 
d="M0 380l144 144v-524h-144v380zM124 296l228 228h184l-235 -236l107 -106v-182l-195 193l-89 -89v192z" />
    <glyph glyph-name="l" unicode="l" horiz-adv-x="370" 
d="M0 380l144 144v-136v-388h-144v380zM144 131h188v-131h-188v131z" />
    <glyph glyph-name="m" unicode="m" horiz-adv-x="632" 
d="M0 165l362 360v-225l228 225v-525h-137v228l-230 -230v222l-223 -220v165z" />
    <glyph glyph-name="n" unicode="n" horiz-adv-x="525" 
d="M0 380l144 144v-524h-144v380zM484 0l-346 344l6 181l187 -189v189h153v-525z" />
    <glyph glyph-name="o" unicode="o" horiz-adv-x="561" 
d="M540 264q0 -125 -80.5 -197.5t-189.5 -72.5q-111 0 -190.5 71t-79.5 199q0 127 80.5 198.5t189.5 71.5q112 0 191 -71t79 -199zM136 264q0 -61 39.5 -96.5t92.5 -35.5q55 0 93.5 34.5t38.5 97.5q0 61 -39.5 96.5t-92.5 35.5q-55 0 -93.5 -34t-38.5 -98z" />
    <glyph glyph-name="p" unicode="p" horiz-adv-x="485" 
d="M-6 380l143 144v-524h-143v380zM276 524q84 0 140 -50t56 -151q0 -75 -57 -133t-135 -58l-106 1v128l65 1q31 0 48 16.5t17 42.5q0 30 -15.5 48.5t-50.5 18.5h-101v136h139z" />
    <glyph glyph-name="q" unicode="q" horiz-adv-x="577" 
d="M340 153q60 39 60 111q0 61 -39.5 96.5t-92.5 35.5q-55 0 -93.5 -34t-38.5 -98q0 -55 39 -93.5t99 -38.5h262l-128 -132l-122 -4q-127 0 -206.5 76.5t-79.5 191.5q0 127 80.5 198.5t189.5 71.5q112 0 191 -71t79 -199q0 -52 -22 -111h-178z" />
    <glyph glyph-name="r" unicode="r" horiz-adv-x="476" 
d="M-6 380l143 144v-524h-143v380zM276 524q79 0 127 -41.5t48 -123.5q0 -70 -47 -117t-124 -47h-11q-6 0 -12.5 1.5t-8 2.5t-1.5 2l4 3l8 4l-86 66l65 1q32 0 49 15.5t17 43.5q0 25 -15.5 39.5t-50.5 14.5h-101v136h139zM447 -4l-279 278h171l108 -110v-168z" />
    <glyph glyph-name="s" unicode="s" horiz-adv-x="402" 
d="M196 324q76 0 123.5 -45t47.5 -114q0 -66 -47 -115.5t-114 -49.5h-125h-81v131l192 -1q13 0 22 10.5t9 24.5q0 28 -38 28q-77 0 -127.5 51t-50.5 123q0 63 51 110t117 47h324l-137 -137l-192 1q-12 0 -21.5 -6.5t-9.5 -19.5q0 -22 15 -30q19 -8 42 -8z" />
    <glyph glyph-name="t" unicode="t" horiz-adv-x="376" 
d="M140 389l144 135v-136v-388h-144v389zM8 388l136 136h322l-136 -136h-322z" />
    <glyph glyph-name="u" unicode="u" horiz-adv-x="462" 
d="M422 196q0 -83 -62.5 -143.5t-150.5 -60.5q-86 0 -147.5 60t-61.5 144v184l144 144v-329q0 -27 20.5 -45.5t47.5 -18.5q26 0 47 18t21 46v329h142v-71v-257z" />
    <glyph glyph-name="v" unicode="v" horiz-adv-x="444" 
d="M1 388l139 138v-223l224 221h164l-527 -525v389z" />
    <glyph glyph-name="w" unicode="w" horiz-adv-x="654" 
d="M755 524l-526 -525v225l-228 -225v385l137 140v-228l230 230v-223l224 221h163z" />
    <glyph glyph-name="x" unicode="x" horiz-adv-x="429" 
d="M0 -4v186l342 342h188zM4 393l132 131l264 -265v-263z" />
    <glyph glyph-name="y" unicode="y" horiz-adv-x="445" 
d="M0 380l144 144v-524h-144v380zM124 104v192l228 228h184z" />
    <glyph glyph-name="z" unicode="z" horiz-adv-x="464" 
d="M137 524h390l-394 -394h302v-130h-435v171l214 217h-211z" />
    <glyph glyph-name="bar" unicode="|" horiz-adv-x="180" 
d="M95 805v-1005h-30v1005h30z" />
    <glyph glyph-name="registered" unicode="&#xae;" horiz-adv-x="576" 
d="M296 183q-120 0 -172 56t-69 99t-17 95q0 102 68 176.5t190 74.5t189.5 -74t67.5 -177q0 -102 -67 -176t-190 -74zM296 664q-112 0 -174.5 -68.5t-62.5 -162.5t62.5 -162t174.5 -68q113 0 175 69t62 162t-62.5 161.5t-174.5 68.5zM325 570q20 -4 42 -17t22 -58
q0 -42 -21 -53.5t-46 -16.5h-48l118 -125h-25l-118 125h-19v-125h-20v270h115zM325 445q15 3 29.5 12.5t14.5 37.5q0 29 -10.5 37t-15 10t-19.5 8h-93v-105h94z" />
    <glyph glyph-name="copyright" unicode="&#xa9;" horiz-adv-x="576" 
d="M296 183q-120 0 -172 56t-69 99t-17 95q0 102 68 176.5t190 74.5t189.5 -74t67.5 -177q0 -102 -67 -176t-190 -74zM296 664q-112 0 -174.5 -68.5t-62.5 -162.5t62.5 -162t174.5 -68q113 0 175 69t62 162t-62.5 161.5t-174.5 68.5zM296 528q-51 0 -79 -29.5t-28 -68.5
t28 -70q29 -29 79 -29q41 0 59.5 15t33.5 32v-30q-11 -13 -31 -24.5t-62 -11.5q-60 0 -93.5 35.5t-33.5 82.5t33 82.5t94 35.5q37 0 57.5 -11.5t35.5 -25.5v-24q-12 14 -33.5 27.5t-59.5 13.5z" />
    <glyph glyph-name="trademark" unicode="&#x2122;" horiz-adv-x="310" 
d="M24 692h107v-6h-50v-151h-7v151h-50v6zM126 536l35 158l50 -145l51 145l33 -158h-7l-28 135l-49 -143l-49 143l-29 -135h-7z" />
    <glyph glyph-name="notequal" unicode="&#x2260;" horiz-adv-x="549" 
d="M413 336h91v-64h-149l-73 -72h222v-64h-281l-118 -118l-43 44l74 74h-91v64h150l73 72h-223v64h281l118 118l44 -44z" />
    <glyph glyph-name="infinity" unicode="&#x221e;" horiz-adv-x="713" 
d="M383 271q22 -45 57.5 -69t77.5 -24q52 0 84.5 35t32.5 90q0 54 -30.5 88.5t-79.5 34.5q-35 0 -71 -36q-32 -35 -71 -119zM330 327q-26 46 -59 69.5t-76 23.5q-52 0 -84.5 -35t-32.5 -90q0 -54 29 -89q31 -34 77 -34q39 0 71 31.5t75 123.5zM366 238q-33 -61 -62 -85
t-49.5 -31.5t-45.5 -7.5q-66 0 -111 52.5t-45 131.5q0 83 41 134.5t105 51.5q46 0 82 -29.5t66 -94.5q30 62 59.5 85t51 31t46.5 8q63 0 97.5 -39.5t46 -72t11.5 -72.5q0 -84 -40 -135t-105 -51q-45 0 -82.5 30t-65.5 94z" />
    <glyph glyph-name="plusminus" unicode="&#xb1;" horiz-adv-x="549" 
d="M506 19h-462v68h462v-68zM309 331h197v-68h-197v-122h-68v122h-197v68h197v122h68v-122z" />
    <glyph glyph-name="lessequal" unicode="&#x2264;" horiz-adv-x="549" 
d="M506 18h-463v68h463v-68zM162 280l344 -107v-70l-462 145v65l462 145v-70z" />
    <glyph glyph-name="greaterequal" unicode="&#x2265;" horiz-adv-x="549" 
d="M506 18h-463v68h463v-68zM506 248l-463 -145v70l344 107l-344 108v70l463 -145v-65z" />
    <glyph glyph-name="mu" unicode="&#xb5;" horiz-adv-x="576" 
d="M166 153q0 -71 14 -95t50 -24q56 0 94.5 81.5t38.5 203.5v130h92v-328q0 -45 9 -66t29 -21t31.5 20.5t11.5 61.5v14h21l1 -9v-13q0 -53 -23.5 -85t-66.5 -32q-48 0 -75 43t-27 129q-23 -89 -61.5 -130.5t-96.5 -41.5q-43 0 -73 26q-27 27 -40 77l-1 -28q0 -66 31 -140.5
t33 -92.5q0 -20 -11 -31t-31 -11q-23 0 -33 17.5t-10 52.5l2 58l2 89l-1 101l-2 95v245h92v-296z" />
    <glyph glyph-name="partialdiff" unicode="&#x2202;" horiz-adv-x="494" 
d="M256 349q-50 0 -86 -60q-34 -62 -34 -161q0 -56 21.5 -87.5t62.5 -31.5q53 0 87 62.5t34 152.5q0 57 -22 91t-63 34zM358 287l6 28l3 31l3 89q0 85 -15.5 126t-47.5 41q-18 0 -50 -35t-56 -35q-15 0 -24.5 7t-12.5 25q0 27 30 49t72 22q76 0 110 -53t47 -102.5t13 -112.5
q0 -163 -64 -271.5t-158 -108.5q-66 0 -109 51t-43 137q0 81 53 143t125 62q44 0 72 -21.5t46 -71.5z" />
    <glyph glyph-name="summation" unicode="&#x3a3;" horiz-adv-x="713" 
d="M618 643l15 -129h-44q-32 105 -85 144t-169 39h-132l315 -431l-344 -394h187q64 0 104.5 7.5t79 31t71.5 109.5h45l-30 -130l-2 -7q-23 -99 -111 -99h-482l389 446l-375 514h460q64 0 82 -15q16 -11 26 -86z" />
    <glyph glyph-name="product" unicode="&#x220f;" horiz-adv-x="823" 
d="M118 -176v880h-88v40h767v-40h-88v-880h88v-40h-264v40h84v880h-407v-880h84v-40h-264v40h88z" />
    <glyph glyph-name="pi" unicode="&#x3c0;" horiz-adv-x="549" 
d="M404 373l-1 -24l-3 -150v-40q0 -86 8.5 -106t30.5 -20q26 0 42 30t16 88h25v-5q0 -80 -26 -118t-80 -38q-55 0 -73 29.5t-24 70.5t-6 104l1 78l3 104l-50 1l-77 2q0 -237 -23 -313t-80 -76q-34 0 -52 29t-18 86v19h24q0 -26 9 -39t28 -13q42 0 54 47t18 110t6 150h-22
q-39 0 -60 -13t-27 -40h-23q0 34 9.5 57.5t36.5 44.5t113 21l102 -3l152 -3q34 0 48.5 6.5t17.5 21.5l23 1q0 -51 -23.5 -75.5t-74.5 -24.5h-14z" />
    <glyph glyph-name="integral" unicode="&#x222b;" horiz-adv-x="274" 
d="M283 757q36 0 58.5 -18.5t22.5 -48.5q0 -20 -12.5 -34t-36.5 -14q-28 0 -43.5 31.5t-29.5 32.5q-57 0 -57 -310l-3 -98v-15q0 -20 -0.5 -38.5t-4.5 -66.5q0 -26 -3.5 -56.5t-11.5 -87t-29 -103.5t-60.5 -79.5t-81.5 -32.5q-35 0 -58 18.5t-23 48.5q0 21 12.5 34t36.5 13
q28 0 43 -30t31 -33q57 0 57 324l2 84q0 21 2 67.5t2 48.5q0 23 3.5 54t11 89.5t30.5 106.5q21 51 59.5 82t82.5 31z" />
    <glyph glyph-name="Omega" unicode="&#x3a9;" horiz-adv-x="768" 
d="M593 90q48 0 68 18.5t20 67.5h23v-176h-272v180q76 15 122 77t46 151q0 106 -59 168.5t-157 62.5q-97 0 -156.5 -62.5t-59.5 -168.5q0 -91 44 -150.5t124 -77.5v-180h-272v176h23q0 -48 19 -67t69 -19h123v59q-118 21 -183 89t-65 170q0 120 93 193.5t241 73.5
q149 0 241.5 -73t92.5 -194q0 -100 -63.5 -167.5t-184.5 -91.5v-59h123z" />
    <glyph glyph-name="radical" unicode="&#x221a;" horiz-adv-x="549" 
d="M594 764h-57l-290 -784h-32l-156 431l-61 -22l-12 39l138 48l125 -346l252 681h93v-47z" />
    <glyph glyph-name="approxequal" unicode="&#x2248;" horiz-adv-x="549" 
d="M15 100v77q23 14 43.5 24.5t51.5 22t66 11.5q43 0 114.5 -24t99.5 -24q26 0 59.5 15t84.5 52v-78q-22 -14 -41 -24.5t-45.5 -20.5t-62.5 -10q-18 0 -41 5t-79 23.5t-100 18.5q-29 0 -55 -11.5t-44.5 -22.5t-26 -16t-24.5 -18zM15 219v77l43 25l51 21q31 11 66 11
q42 0 115 -23.5t100 -23.5q29 0 52.5 10.5t44 23t47.5 32.5v-77l-41 -24l-49 -22q-26 -9 -59 -9q-36 0 -106 23.5t-109 23.5q-37 0 -66 -14q-28 -11 -89 -54z" />
    <glyph glyph-name="Delta" unicode="&#x2206;" horiz-adv-x="612" 
d="M92 45h373l-186 459zM595 0h-574l276 672h22z" />
    <glyph glyph-name="nbspace" unicode="&#xa0;" horiz-adv-x="500" 
 />
    <glyph glyph-name="divide" unicode="&#xf7;" horiz-adv-x="549" 
d="M275 158q24 0 40 -16t16 -41q0 -24 -17 -40q-15 -17 -39 -17t-41 17q-16 19 -16 40q0 24 18 40.5t39 16.5zM506 202h-463v68h463v-68zM275 427q24 0 40 -17.5t16 -39.5q0 -24 -17 -40q-15 -17 -39 -17t-41 16q-16 18 -16 41q0 24 18 40.5t39 16.5z" />
    <glyph glyph-name="lozenge" unicode="&#x25ca;" horiz-adv-x="494" 
d="M247 688l-188 -399l188 -403l188 403zM247 807l244 -518l-244 -522l-244 522z" />
    <glyph glyph-name="apple" unicode="&#xf000;" horiz-adv-x="790" 
d="M408 594l-1 7v11q0 60 45.5 111.5t116.5 64.5v-12l1 -18q0 -62 -50.5 -113.5t-99.5 -51.5h-4zM735 197q-28 -60 -53.5 -102.5t-59.5 -77t-87 -34.5q-25 0 -65.5 16t-58.5 16q-23 0 -65 -16t-61 -16q-30 0 -63 21l-31 27l-48 60q-30 43 -52 102.5t-29 95t-7 71.5
q0 107 61.5 174.5t157.5 67.5q16 0 31.5 -3t26.5 -6.5t25.5 -9.5t30 -10.5t22.5 -4.5q20 0 62 17t72 17q56 0 97 -20q42 -18 78 -60q-47 -30 -72.5 -70t-25.5 -90q0 -53 30 -97t84 -68z" />
  </font>
</defs>
</svg>
